#TITLE:The Orcs;
#SUBTITLE:Initiate;
#ARTIST:Jay Chou;
#TITLETRANSLIT:;
#SUBTITLETRANSLIT:;
#ARTISTTRANSLIT:;
#CREDIT:;
#BANNER:Orcs-bn.png;
#BACKGROUND:;
#LYRICSPATH:;
#CDTITLE:cdtitle.png;
#MUSIC:orcs.ogg;
#OFFSET:0.000;
#SAMPLESTART:100.000;
#SAMPLELENGTH:12.000;
#SELECTABLE:YES;
#DISPLAYBPM:96.000;
#BPMS:0.000=96.000,131.000=-96.000,135.000=96.000,140.938=-96.000,144.938=96.000,150.938=-96.000,154.938=96.000,160.938=-96.001,164.938=96.000;
#STOPS:;
#BGCHANGES:;
// cache tags:
#FIRSTBEAT:0.000;
#LASTBEAT:248.500;
#SONGFILENAME:Songs/Initiate/orcs/orcs.sm;
#HASMUSIC:1;
#HASBANNER:1;
#MUSICLENGTH:136.068;
// end cache tags

//---------------dance-single - ----------------
#NOTES:
     dance-single:
     :
     Hard:
     9:
     1.000,1.000,1.000,1.000,1.000,634.000,243.000,212.000,152.000,172.000:
0010
0100
0010
0100
1001
0000
1001
1001
0000
1001
1001
0000
1100
1100
0000
0011
,
0011
0000
1001
0000
1001
0000
1010
1010
0000
0101
0101
0000
1101
1110
0001
0010
,
1101
1110
1101
1110
1101
0000
1001
1001
0000
0000
0000
0000
1000
1000
1000
1000
,
1100
1100
1100
1100
1101
1100
1100
1100
1110
1100
1100
1100
1101
1100
1110
1100
,
1101
0000
1100
0000
1110
0000
1100
0000
1101
0000
0000
0000
0002
0003
0020
0030
1100
0000
0020
0030
0102
0003
0000
0000
2000
3000
0200
0300
0010
0000
2000
3000
,
0211
0300
0000
0000
0020
0030
0000
0000
0102
0003
0000
0000
2000
3000
0200
0300
0011
0000
0200
0300
2001
3000
0000
0000
2000
3000
0200
0300
0001
0000
0020
0030
,
1102
0003
0020
0030
1102
0003
0020
0030
0200
0300
0000
0000
2000
3000
0200
0300
1001
0000
0020
0030
0102
0003
0000
0000
0002
0003
0020
0030
1000
0000
0200
0300
,
2011
3000
0000
0000
2000
3000
0000
0000
2101
3000
0000
0000
2000
3000
0200
0300
1001
0000
0200
0300
2000
3000
0000
0000
1001
0000
0100
0000
0010
0000
0100
0000
,
0010
0100
0010
0100
1001
0000
0100
0000
1001
0000
0010
0000
0100
0000
1000
0100
,
1001
0000
0100
1000
0100
0000
0001
0000
1001
0000
0010
0000
1000
0000
0100
0000
,
1001
1001
1001
0000
0010
0000
0100
0000
1001
0000
0100
0000
0010
0000
1000
0100
,
1001
0000
0010
1000
0100
0000
1000
0000
0101
0000
0010
0000
0001
0000
0100
0010
,
1001
1001
1001
0000
0010
0000
0100
0000
1001
0000
0100
0000
0010
0000
1000
0010
,
1001
0000
0010
1000
0100
0000
1000
0000
1001
0000
1000
0000
0100
0000
0010
0100
,
1001
0100
1010
0000
0100
0000
0001
0000
0110
0000
1000
0000
0001
0000
0100
1000
,
0110
0000
1000
0100
0010
0000
1000
0100
0001
0000
0010
0000
0100
0000
1000
0000
,
0100
0100
0001
0000
1102
1000
0100
0010
,
1010
0010
0100
0000
1100
2010
0100
0010
,
3113
1001
0110
0000
2101
0010
0001
0010
,
0101
0001
3200
0000
1001
0010
1300
0100
,
1201
0000
1001
0000
1001
0000
0000
0000
1320
0000
0000
0000
0001
0000
1000
0000
1100
0000
0001
0000
1000
0000
0100
0000
0001
1000
0100
0000
0231
0000
0000
0000
,
2312
0000
3020
0000
2133
0000
0010
0001
0110
0000
0001
0000
0010
0100
3201
0010
,
1312
0000
0000
0000
0200
0000
0000
0000
1323
0000
0000
0000
0001
0000
1000
0000
1001
0000
0001
0000
1000
0000
0100
0000
0001
1000
0001
0000
1230
0000
0000
0000
,
1322
0000
0230
0000
0323
1000
0001
0100
1001
0100
0001
0100
1000
0100
0231
0010
,
2311
0000
0110
0000
0101
0000
0000
0000
3120
0000
0000
0000
0001
0000
1000
0000
1001
0000
1000
0000
0100
0000
0001
0000
0100
0001
1000
0000
0132
0000
0000
0000
,
2123
0000
3200
0000
2331
0000
0010
0100
0110
0000
0001
0000
0010
0001
3210
0001
,
1312
0000
0000
0000
0200
0000
0000
0000
2313
0000
0000
0000
0001
0000
0100
0000
0101
0000
0010
0000
0001
0000
0100
0000
0010
0001
0010
0000
3201
0000
0000
0000
,
1322
0000
0230
0000
2303
0010
0100
0010
0001
0010
0100
0010
0001
0010
3100
0001
,
1000
0000
0100
0000
0001
0000
0010
0000
1101
0000
0000
0000
2000
3000
0200
0300
0011
0000
0200
0300
2010
3000
0000
0000
0002
0003
0020
0030
0100
0000
0002
0003
,
1120
0030
0000
0000
0200
0300
0000
0000
2010
3000
0000
0000
0002
0003
0020
0030
1100
0000
0020
0030
1002
0003
0000
0000
0002
0003
0020
0030
1000
0000
0200
0300
,
2011
3000
0200
0300
2011
3000
0200
0300
0020
0030
0000
0000
0002
0003
0020
0030
1001
0000
0200
0300
2010
3000
0000
0000
2000
3000
0200
0300
0001
0000
0020
0030
,
1102
0003
0000
0000
0002
0003
0000
0000
1012
0003
0000
0000
0002
0003
0020
0030
1001
0000
0020
0030
0002
0003
0000
0000
0001
0000
1000
0000
0001
0000
1000
0000
,
0001
0000
0000
0000
1000
0000
0000
0000
0001
0000
0000
0000
1000
0000
0000
0000
MMM0
00M0
00M0
00M0
00M0
0M00
M000
0000
0MM0
M00M
MMMM
M00M
M00M
0000
0000
M00M
0M00
00M0
00M0
00M0
00M0
00M0
0000
0000
M000
0M00
00M0
000M
0000
0000
0000
0000
000M
0000
0000
0000
00M0
0000
0000
0000
0M00
0000
0000
0000
M000
0000
0000
0000
,
0M00
00M0
000M
00M0
0M00
M000
0M00
00M0
000M
00M0
0M00
M000
0M00
0000
0000
0000
,
0000
0000
0000
0000
0000
0000
0000
0000
0000
0000
0000
0000
0001
0010
0100
1000
,
0100
0010
0001
0010
0M0M
M0M0
0M0M
M0M0
0M0M
M0M0
0M0M
M0M0
0M0M
M0M0
0M0M
M0M0
,
0M0M
M0M0
0M0M
M0M0
0000
0000
0000
0000
0000
0000
0000
0000
0000
0000
0000
0000
,
0000
0000
0000
0000
0101
1010
0101
1010
0101
1010
0101
1010
MMMM
MM00
00MM
MM00
,
00MM
MM00
00MM
MM00
00MM
MM00
00MM
MM00
00MM
MM00
00MM
MM00
0000
0000
0000
0000
,
0000
0000
0000
0000
0000
0000
0000
0000
0000
0000
0000
0000
1111
1100
0011
1100
,
0011
1100
0011
1100
MMMM
M00M
0MM0
M00M
0MM0
M00M
0MM0
M00M
0MM0
M00M
0MM0
M00M
,
0MM0
M00M
0MM0
M00M
0MM0
0000
0000
0000
0000
0000
0000
0000
0000
0000
0000
0000
,
0000
0000
0000
0000
1111
1001
0110
1001
0110
1001
0110
1001
0120
0000
1000
0100
,
0000
0100
0001
0000
0000
0000
1230
0000
0312
0000
1020
0100
2133
0000
0001
0010
,
0000
0100
0100
0000
0000
0000
3210
0000
0312
0000
1200
0010
1323
0000
1000
0100
,
0000
0000
0001
0000
0100
0000
0000
0000
0000
0000
0000
0000
1230
0000
0000
0000
0312
0000
0000
0000
1200
0000
0010
0000
1323
0000
0000
0000
1002
0103
0000
0000
,
1002
0103
0000
0000
1002
0103
0000
0000
1002
0103
0000
0000
1032
0100
0000
0000
2103
0000
0010
0000
3201
0000
1000
0000
1320
0000
0100
0000
0001
0000
1000
0000
,
0101
1000
0001
0100
1000
0100
1032
1000
1123
0000
0231
0010
2301
0100
0010
0001
,
0101
0010
0100
0100
0010
0010
3201
0001
2311
0110
3211
1010
2301
0010
0100
0001
,
0110
0100
0010
0001
0100
0010
3201
1000
1322
0000
1233
0010
2301
0010
0100
0001
,
0110
0001
0100
0010
0100
0001
3201
0000
2311
0001
3210
0001
1302
0000
0023
0000
,
1132
0000
0123
0000
0000
0000
0032
0000
2113
0000
3200
0001
1320
0000
0032
0000
,
1023
0000
0230
0000
0000
0000
2300
0000
3121
1000
0032
0000
0123
0000
0032
0000
,
1123
0000
0000
0000
0230
0000
0302
0000
0203
0000
2300
0000
3200
0000
0320
0000
0032
0000
2003
0000
3200
0000
0320
0000
0032
0000
0000
0000
1200
0310
0000
0000
,
1200
0310
0000
0000
1200
0310
0000
0000
1200
0310
0000
0000
1200
0310
0000
0000
1020
0000
0000
0000
1233
0000
0000
0000
0312
0000
0000
0000
1023
0000
0100
0000
,
0032
0000
0100
0000
1023
0000
0100
0000
1032
0100
0010
0000
1023
0000
0000
0000
1032
0000
0000
0000
0000
0000
0000
0000
1023
0000
0000
0000
1032
0000
0100
0000
,
1023
0000
0132
0000
0123
1000
0132
1000
0123
0000
0200
0000
1332
0000
1023
0100
,
0032
0000
1000
0000
0123
0000
0100
0000
1032
0100
0010
0000
1023
0000
0000
0000
0132
0000
0000
0000
0200
0000
0000
0000
0323
0000
1000
0000
0132
0000
1000
0000
,
1023
0100
0132
0010
1023
0100
1032
0100
1020
0000
1203
0000
0331
0000
0010
0100
,
0000
1000
0100
0000
0100
1000
0000
1000
0100
0000
0100
0000
0100
0000
1000
0100
,
0000
0001
0010
0000
0100
0010
0000
0010
0100
1000
0100
0010
0001
0000
0100
1000
,
0000
0001
0010
0000
0010
0100
0000
0010
0100
0000
1000
0000
0100
0000
0010
0010
,
0000
0010
0010
0000
0000
0000
0000
0000
0000
0000
0000
0000
0000
0000
0000
0000
;
